» » Angela Bofill - Intuition (Expanded Edition)

Angela Bofill - Intuition (Expanded Edition) Full Album

Angela Bofill - Intuition (Expanded Edition) Full Album Performer: Angela Bofill
Title: Intuition (Expanded Edition)
Style: Contemporary R&B
Category: Soul
Date of release: 2013
Country: UK
Label: SoulMusic Records
Catalog number: SMCR 5099
Size MP3: 2184 mb
Size FLAC: 1945 mb
Rating: 4.9

Tracklist

1Special Lover4:36
2I Just Wanna Stop4:29
3 Bonus Tracks
4Fragile, Handle With Care4:06
5Love Is In Your Eyes (US Capitol 12" single edit)4:22
6Long Gone6:05
7Love Is In Your Eyes5:11
8For You And I (Duet with Peabo Bryson)3:59
9In Your Lover's Eyes6:15
10Love Overtime4:31
11I Just Wanna Stop (US Capitol single)4:17
12Festival/Down The Line5:53
13Intuition5:27
14Everlasting Love4:36

Versions

CategoryArtistTitle (Format)LabelCategoryCountryYear
C1-48335Angela Bofill Intuition ‎(LP, Album)Capitol RecordsC1-48335US1988
0647483351Angela Bofill Intuition ‎(LP, Album)Capitol Records0647483351Brazil1989
TC-CI 48335, E1148-8Angela Bofill Intuition ‎(Cass, Album)Capitol Records, Capitol RecordsTC-CI 48335, E1148-8Indonesia1988
SLEM-1606Angela Bofill Intuition ‎(LP, Album)Capitol RecordsSLEM-1606Mexico1989
CDP 7 48335 2Angela Bofill Intuition ‎(CD, Album)Capitol RecordsCDP 7 48335 2US1988

Credits

  • Artwork By, DesignRoger Williams
  • Compilation ProducerDavid Nathan
  • Remastered ByAlan Wilson

Notes

Originally issued 1988

Barcodes

  • Barcode: 5013929079939
  • Rights Society: MCPS

Companies

  • Phonographic Copyright (p) – Capitol Records, LLC
  • Copyright (c) – Capitol Records, LLC
  • Phonographic Copyright (p) – SoulMusic Records
  • Copyright (c) – SoulMusic Records
  • Licensed From – EMI Records Ltd.
  • Marketed By – Cherry Red Records Ltd.
  • Distributed By – Cherry Red Records Ltd.

Album

Intuition - Angela Bofill. Лента с персональными рекомендациями и музыкальными новинками, радио, подборки на любой вкус, удобное управление своей коллекцией. Intuition is the eighth album by Angela Bofill, and was her first and only release on Capitol Records in 1988. It is produced by Norman Connor. The album peaked at position 38 of the Billboard 200 chart on January 6th 1989 and stayed on the chart for 20 weeks. Bofill recorded a duet with Peabo Bryson on the track For You And I, a song she performed live at Avery Fisher Hall, Lincoln Center in 1980. Angela Bofill tried to find a middle ground between the light jazz, fusion, and Latin music she did earlier in her career and the glossy urban contemporary and dance-tinged R&B and pop that had been her '80s mode. The results were mixed much of this sounds tentative and generic, with Bofill struggling to find a comfortable way to express the lyrics and get used to the production style. Angela Bofill: все альбомы, включая I'm On Your Side , The Essential Angela Bofill , Platinum & Gold Collection и другие. Angela Bofill. Love In Slow Motion. Angel Of The Night. SoulMusic Records. Track Listings. Disc: 1. Love Is in Your Eyes. I Just Wanna Stop. Long Gone. Angela Bofill - Intuition 1988. To favorites 0 Download album. Listen album. Funk, Soul. Songs in album Angela Bofill - Intuition 1988. Angela Bofill - Love Is In Your Eyes. Angela Bofill - Intuition. Angela Bofill - I Just Wanna Stop. Angela Bofill - Long Gone. Angela Bofill - For You And I with Peabo Bryson. Angela Bofill - Fragile, Hanle With Care. Angela Bofill - In Your Lovers Eyes. 9 tracks 43:40

Video

User reviews
Manazar
Average dynamic range, slightly compressed from 1988 CD.

foobar2000 1.4.4 / Dynamic Range Meter 1.1.1
log date: 2019-10-29 19:03:10

--------------------------------------------------------------------------------
Analyzed: Angela Bofill / Intuition (Expanded Edition) [UK 1988/2013 CD]
--------------------------------------------------------------------------------

DR Peak RMS Duration Track
--------------------------------------------------------------------------------
DR11 0.00 dB -12.97 dB 5:10 01-Love Is In Your Eyes
DR10 0.00 dB -11.43 dB 5:29 02-Intuition
DR10 0.00 dB -12.00 dB 4:31 03-I Just Wanna Stop
DR11 0.00 dB -12.92 dB 6:06 04-Long Gone
DR9 0.00 dB -11.21 dB 4:01 05-For You And I (Duet with Peabo Bryson)
DR9 0.00 dB -12.54 dB 4:04 06-Fragile, Handle With Care
DR11 0.00 dB -12.56 dB 6:16 07-In Your Lover's Eyes
DR12 0.00 dB -14.46 dB 4:33 08-Love Overtime
DR12 0.00 dB -14.92 dB 5:54 09-Festival / Down The Line
DR10 0.00 dB -12.70 dB 4:38 10-Special Lover
DR11 0.00 dB -13.91 dB 3:49 11-Everlasting Love
DR11 0.00 dB -14.02 dB 4:17 12-I Just Wanna Stop (US Capitol Single - Bonus Track)
DR12 0.00 dB -14.61 dB 4:22 13-Love Is In Your Eyes (US Capitol 12" Single Edit - Bonus Track)
--------------------------------------------------------------------------------

Number of tracks: 13
Official DR value: DR11

Samplerate: 44100 Hz
Channels: 2
Bits per sample: 16
Bitrate: 867 kbps
Codec: ALAC
================================================================================